#TITLE:DEVIL QUEEN;
#SUBTITLE:;
#ARTIST:Rednex;
#TITLETRANSLIT:;
#SUBTITLETRANSLIT:;
#ARTISTTRANSLIT:;
#CREDIT:;
#BANNER:Devil Queen-banner.png;
#BACKGROUND:Devil Queen-bg.png;
#LYRICSPATH:;
#CDTITLE:;
#MUSIC:Devil Queen.mp3;
#MUSICLENGTH:90.200;
#OFFSET:-0.220;
#SAMPLESTART:30.585;
#SAMPLELENGTH:12.000;
#SELECTABLE:YES;
#BPMS:0.000=134.000;
#STOPS:;
#BGCHANGES:;
#FIRSTBEAT:20.000;

#LASTBEAT:196.000;

#SONGFILENAME:Songs/ERICth MIX 2nd Style/Devil Queen/devil queen.sm;

#HASMUSIC:1;

#HASBANNER:1;


//---------------dance-single - MANIAC----------------
#NOTES:
     dance-single:
     MANIAC:
     hard:
     6:
     0.342,0.407,0.200,0.111,0.000,188.000,18.000,10.000,0.000,0.000:

0000
0000
0000
0000
,
0000
0000
0000
0000
,
0000
0000
0000
0000
,
0000
0000
0000
0000
,
0000
0000
0000
0000
,
0000
0100
0000
0100
,
0000
0010
0000
0010
,
0000
0001
0000
0001
,
0000
0000
1000
0000
1000
0010
1000
0000
,
0100
0010
0100
0000
0010
0100
0010
0000
,
0010
0000
0010
0000
0100
0010
0100
0000
,
1000
1000
0001
0000
1000
0001
1000
0000
,
0001
0001
1000
0000
0100
0000
0100
0000
,
0010
1000
0001
0000
0010
0001
1000
0000
,
0010
1000
0001
0100
0010
1000
0001
0000
,
0100
0001
1000
0000
0100
1000
0001
0000
,
0100
0001
1000
0010
0100
0001
1000
0000
,
2000
0000
3000
0000
0000
0100
0001
1000
,
0001
0000
0000
0000
0000
0000
0100
0010
,
0100
0100
0100
0000
,
2000
0000
3001
1000
0000
0000
0000
0000
,
1001
1000
0100
0010
,
0010
0100
0100
0001
,
1000
0001
1000
1001
,
0200
0000
0310
0100
0000
0000
0000
0000
,
1000
0000
0001
0000
0001
0100
1000
0100
,
0001
0000
1100
0000
1100
0000
0100
0001
,
0100
0100
0100
0000
,
0200
0000
0310
0100
0000
0000
0000
0000
,
0101
0000
0001
0000
1000
0000
0010
1000
,
0010
0000
1001
0000
1001
0000
0100
1000
,
0200
0320
0032
0003
,
1100
0000
1000
0100
0000
0000
0000
0000
,
0000
1000
0000
0001
0000
0100
0000
0001
,
0000
1000
0000
0001
0010
0000
0010
0000
,
0001
1000
0000
0001
0000
0100
0000
0001
,
0000
1000
0100
1000
0001
0000
1000
0000
,
1100
1000
1100
0100
,
1001
0110
0011
0101
,
1000
0100
0000
0100
0000
0100
0000
0001
,
2000
0000
0000
0000
0000
0000
0000
3000
,
0010
0000
0100
0000
0010
0100
0010
0000
,
1000
0001
1000
0000
0001
1000
0001
0000
,
1000
0100
0010
0001
,
1000
0100
0010
0001
2000
0000
3000
0000
,
1100
0001
0011
1000
,
0110
0000
0110
0000
1000
0100
0010
0000
,
1000
0100
1000
0001
,
0010
0000
0010
0010
0020
0000
0000
0000
,
0030
0000
0000
0000;

//---------------dance-single - ANOTHER----------------
#NOTES:
     dance-single:
     ANOTHER:
     medium:
     4:
     0.279,0.376,0.022,0.000,0.000,174.000,2.000,0.000,0.000,0.000:

0000
0000
0000
0000
,
0000
0000
0000
0000
,
0000
0000
0000
0000
,
0000
0000
0000
0000
,
0000
0000
0000
0000
,
0001
0000
1000
0000
,
0001
0000
1000
0000
,
0001
0000
1000
0000
,
0001
0000
1000
0000
,
0100
0010
0000
0001
,
0001
0100
1000
0010
,
1000
0000
0100
0000
0010
0100
0010
0000
,
0001
1000
0100
0010
0001
1000
0100
0000
,
0100
1000
0100
0000
0010
1000
0010
0000
,
0001
0000
1000
0000
0100
0010
0100
0000
,
0001
0000
1000
0000
0010
1000
0010
0000
,
0010
0000
0100
0000
0001
0100
1000
0000
,
0001
0100
1000
0010
,
1000
0000
0100
0000
0010
0000
0001
0010
,
0001
1000
1000
0010
,
1000
0000
0010
1000
0000
0000
0000
0000
,
0100
0000
1000
0000
0001
0000
0010
0100
,
0001
0000
0010
0100
,
1000
0000
0001
0000
0100
0000
0010
0100
,
1000
0000
0001
1000
0000
0000
0000
0000
,
0001
0000
0010
0000
0100
0000
0010
0100
,
0010
0000
0001
0000
1000
0000
0010
1000
,
0100
0000
0100
0000
0100
0000
0001
0100
,
1000
0000
0010
0001
0000
0000
0000
0000
,
0001
0000
1000
0000
0100
0000
0010
0001
,
0010
0000
0100
0000
1000
0000
0100
1000
,
0010
0000
0100
0000
0001
0000
0100
0001
,
1000
0000
0010
1000
0000
0000
0000
0000
,
0001
1000
0100
0001
,
0100
0001
1000
0010
,
1000
0001
1000
1000
,
0010
0001
0100
0100
,
0010
1000
0001
0010
,
0010
1000
0100
0001
,
1000
0000
0010
0010
,
1000
0100
1000
0000
,
0001
1000
0010
0010
,
0001
0100
0001
0000
,
1000
0010
1000
0000
,
0110
0000
0110
0000
,
0001
0000
1000
0000
0010
0100
0001
0000
,
0000
0100
0010
0010
,
1000
0000
0010
0000
1000
0100
1000
0000
,
0100
1000
0001
0000;

//---------------dance-single - BASIC----------------
#NOTES:
     dance-single:
     BASIC:
     easy:
     1:
     0.127,0.161,0.044,0.022,0.000,74.000,4.000,2.000,0.000,0.000:

0000
0000
0000
0000
,
0000
0000
0000
0000
,
0000
0000
0000
0000
,
0000
0000
0000
0000
,
0000
0000
0000
0000
,
0000
0001
0000
0001
,
0000
0001
0000
0001
,
0000
0001
0000
0001
,
0000
0001
0000
0000
,
1001
0000
0000
0000
,
0100
0000
0000
0010
,
0100
0000
0000
0000
,
0001
0000
0000
1000
,
0001
0000
0000
0000
,
0100
0000
0000
1000
,
0100
0000
0000
0000
,
0010
0000
0000
0010
,
0001
0000
0001
0000
,
1000
0000
1000
0000
,
0100
0000
0100
0000
,
0010
0000
0010
0000
,
0001
0000
0000
0000
,
1000
0000
0000
0000
,
0110
0000
0000
0000
,
0011
0000
0000
0000
,
0100
0000
1000
0000
,
0001
0000
0100
0000
,
0010
0000
0100
0000
,
0010
0000
0100
0000
,
0001
0000
0000
0000
,
0001
0000
1000
0000
,
0001
0000
1000
0000
,
0220
0000
0000
0330
,
0001
0000
0000
0000
,
0001
0000
1000
0001
,
1000
0000
1000
0000
,
0000
0000
0000
0000
,
1000
0000
0010
0000
,
0000
0000
0010
0100
,
0010
0000
0001
0000
,
0100
0000
0000
0000
,
0100
0000
0100
0000
,
0100
0000
0100
0000
,
0010
0000
0010
0000
,
0010
0000
0010
0000
,
0001
0000
0001
0000
,
0001
0000
0001
0000
,
1000
0000
1000
0000
,
1000
0000
1000
0000;
